Информация о фильме
Название: Кристина
Оригинальное название: Christine
Год выхода: 1983
Жанр: Ужасы, мистика, драма, экранизация
Режиссер: Джон Карпентер
В ролях: Кит Гордон, Джон Стокуэлл, Александра Пол, Роберт Проски, Гарри Дин Стэнтон, Кристин Белфорд, Робертс Блоссом, Уильям Острандер, Дэвид Спилберг, Мальколм Дэнар
О фильме:
По мотивам романа Стивена Кинга. Дело происходит в 1978 году. Скромный застенчивый студент покупает ярко-красный 'плимут' модели 1958 года. Прежний владелец дал ей человеческое имя Кристина. После того, как студент машину отреставрировал и привел в порядок, она вдруг становится автомобилем-убийцей. Правда, машина убивает людей не просто так, а для того, чтобы пополнить свои запасы жизненной силы. Это позволяет ей все время выглядеть как новенькая...

Страна: США
Студия: Columbia Pictures Corporation, Delphi Premier Productions, Polar Film
Продолжительность: 01:50:00
Перевод: Профессиональный многоголосый, профессиональный двухголосый, авторский
Файл
Кодек: H.265
Качество: BDRemux 2160p
Видео: HEVC HDR, 53.7 Mбит/с, 3840x2160, 23.976 кадр/с
Звук:
Русский (AC3, 2 ch, 256 Кбит/с) / Профессиональный многоголосый (Blu-ray EUR)
Русский (DTS, 6 ch, 1510 Кбит/с) / Профессиональный многоголосый (Видеосервис)
Русский (AC3, 2 ch, 192 Кбит/с) / Профессиональный многоголосый (Первый канал)
Русский (AC3, 6 ch, 384 Кбит/с) / Профессиональный двухголосый (НТВ+)
Русский (AC3, 2 ch, 192 Кбит/с) / Профессиональный двухголосый (Киномания)
Русский (DTS, 6 ch, 1510 Кбит/с) / Авторский (В.Штейн)
Русский (AC3, 2 ch, 192 Кбит/с) / Авторский (С.Визгунов)
Русский (AC3, 2 ch, 192 Кбит/с) / Авторский (Л.Володарский)
Русский (AC3, 2 ch, 192 Кбит/с) / Авторский (В.Говорун)
Украинский (AC3, 2 ch, 192 Кбит/с) / Профессиональный многоголосый
Английский (TrueHD+Atmos, 8 ch, 3362 Кбит/с)
Английский (AC3, 6 ch, 640 Кбит/с)
Субтитры: Русские, английские (Full, SDH)
Семпл

MI

General
Unique ID : 103897771480041176464074482406806293666 (0x4E29FBA0F68AF2F97120053DB3F48CA2)
Complete name : D:uTorrentChristine.1983.BDRemux.2160p.HDR.MediaClub.mkv
Format : Matroska
Format version : Version 4
File size : 48.1 GiB
Duration : 1 h 50 min
Overall bit rate mode : Variable
Overall bit rate : 62.6 Mb/s
Encoded date : UTC 2018-09-11 20:18:28
Writing application : mkvmerge v25.0.0 ('Prog Noir') 64-bit
Writing library : libebml v1.3.6 + libmatroska v1.4.9
Cover : Yes
Attachments : cover.jpg
Video
ID : 1
Format : HEVC
Format/Info : High Efficiency Video Coding
Commercial name : HDR10
Format profile : Main 10@L5.1@High
Codec ID : V_MPEGH/ISO/HEVC
Duration : 1 h 50 min
Bit rate : 53.7 Mb/s
Width : 3 840 pixels
Height : 2 160 pixels
Display aspect ratio : 16:9
Frame rate mode : Constant
Frame rate : 23.976 (24000/1001) FPS
Color space : YUV
Chroma subsampling : 4:2:0 (Type 2)
Bit depth : 10 bits
Bits/(Pixel*Frame) : 0.270
Stream size : 41.3 GiB (86%)
Title : BDRemux.2160p.HDR by Silverok
Default : Yes
Forced : No
Color range : Limited
Color primaries : BT.2020
Transfer characteristics : PQ
Matrix coefficients : BT.2020 non-constant
Mastering display color primaries : Display P3
Mastering display luminance : min: 0.0050 cd/m2, max: 4000 cd/m2
Maximum Content Light Level : 1951 cd/m2
Maximum Frame-Average Light Level : 701 cd/m2
Audio #1
ID : 2
Format : AC-3
Format/Info : Audio Coding 3
Commercial name : Dolby Digital
Codec ID : A_AC3
Duration : 1 h 50 min
Bit rate mode : Constant
Bit rate : 256 kb/s
Channel(s) : 2 channels
Channel layout : L R
Sampling rate : 48.0 kHz
Frame rate : 31.250 FPS (1536 SPF)
Bit depth : 16 bits
Compression mode : Lossy
Stream size : 201 MiB (0%)
Title : Профессиональный многоголосый (Blu-ray EUR)
Language : Russian
Service kind : Complete Main
Default : Yes
Forced : No
Audio #2
ID : 3
Format : DTS
Format/Info : Digital Theater Systems
Codec ID : A_DTS
Duration : 1 h 49 min
Bit rate mode : Constant
Bit rate : 1 510 kb/s
Channel(s) : 6 channels
Channel layout : C L R Ls Rs LFE
Sampling rate : 48.0 kHz
Frame rate : 93.750 FPS (512 SPF)
Bit depth : 24 bits
Compression mode : Lossy
Stream size : 1.16 GiB (2%)
Title : Профессиональный (многоголосый, закадровый) Видеосервис
Language : Russian
Default : No
Forced : No
Audio #3
ID : 4
Format : AC-3
Format/Info : Audio Coding 3
Commercial name : Dolby Digital
Codec ID : A_AC3
Duration : 1 h 49 min
Bit rate mode : Constant
Bit rate : 192 kb/s
Channel(s) : 2 channels
Channel layout : L R
Sampling rate : 48.0 kHz
Frame rate : 31.250 FPS (1536 SPF)
Bit depth : 16 bits
Compression mode : Lossy
Stream size : 151 MiB (0%)
Title : Профессиональный (многоголосый, закадровый) Первый канал
Language : Russian
Service kind : Complete Main
Default : No
Forced : No
Audio #4
ID : 5
Format : AC-3
Format/Info : Audio Coding 3
Commercial name : Dolby Digital
Codec ID : A_AC3
Duration : 1 h 49 min
Bit rate mode : Constant
Bit rate : 384 kb/s
Channel(s) : 6 channels
Channel layout : L R C LFE Ls Rs
Sampling rate : 48.0 kHz
Frame rate : 31.250 FPS (1536 SPF)
Bit depth : 16 bits
Compression mode : Lossy
Stream size : 302 MiB (1%)
Title : Профессиональный (двухголосый, закадровый) НТВ+
Language : Russian
Service kind : Complete Main
Default : No
Forced : No
Audio #5
ID : 6
Format : AC-3
Format/Info : Audio Coding 3
Commercial name : Dolby Digital
Codec ID : A_AC3
Duration : 1 h 49 min
Bit rate mode : Constant
Bit rate : 192 kb/s
Channel(s) : 2 channels
Channel layout : L R
Sampling rate : 48.0 kHz
Frame rate : 31.250 FPS (1536 SPF)
Bit depth : 16 bits
Compression mode : Lossy
Stream size : 151 MiB (0%)
Title : Профессиональный (двухголосый, закадровый) Киномания
Language : Russian
Service kind : Complete Main
Default : No
Forced : No
Audio #6
ID : 7
Format : DTS
Format/Info : Digital Theater Systems
Codec ID : A_DTS
Duration : 1 h 49 min
Bit rate mode : Constant
Bit rate : 1 510 kb/s
Channel(s) : 6 channels
Channel layout : C L R Ls Rs LFE
Sampling rate : 48.0 kHz
Frame rate : 93.750 FPS (512 SPF)
Bit depth : 24 bits
Compression mode : Lossy
Stream size : 1.16 GiB (2%)
Title : Авторский одноголосый В.Штейн
Language : Russian
Default : No
Forced : No
Audio #7
ID : 8
Format : AC-3
Format/Info : Audio Coding 3
Commercial name : Dolby Digital
Codec ID : A_AC3
Duration : 1 h 49 min
Bit rate mode : Constant
Bit rate : 192 kb/s
Channel(s) : 2 channels
Channel layout : L R
Sampling rate : 48.0 kHz
Frame rate : 31.250 FPS (1536 SPF)
Bit depth : 16 bits
Compression mode : Lossy
Stream size : 151 MiB (0%)
Title : Авторский одноголосый С.Визгунов
Language : Russian
Service kind : Complete Main
Default : No
Forced : No
Audio #8
ID : 9
Format : AC-3
Format/Info : Audio Coding 3
Commercial name : Dolby Digital
Codec ID : A_AC3
Duration : 1 h 49 min
Bit rate mode : Constant
Bit rate : 192 kb/s
Channel(s) : 2 channels
Channel layout : L R
Sampling rate : 48.0 kHz
Frame rate : 31.250 FPS (1536 SPF)
Bit depth : 16 bits
Compression mode : Lossy
Stream size : 151 MiB (0%)
Title : Авторский одноголосый Л.Володарский
Language : Russian
Service kind : Complete Main
Default : No
Forced : No
Audio #9
ID : 10
Format : AC-3
Format/Info : Audio Coding 3
Commercial name : Dolby Digital
Codec ID : A_AC3
Duration : 1 h 49 min
Bit rate mode : Constant
Bit rate : 192 kb/s
Channel(s) : 2 channels
Channel layout : L R
Sampling rate : 48.0 kHz
Frame rate : 31.250 FPS (1536 SPF)
Bit depth : 16 bits
Compression mode : Lossy
Stream size : 151 MiB (0%)
Title : Авторский одноголосый закадровый В.Говорун
Language : Russian
Service kind : Complete Main
Default : No
Forced : No
Audio #10
ID : 11
Format : AC-3
Format/Info : Audio Coding 3
Commercial name : Dolby Digital
Codec ID : A_AC3
Duration : 1 h 49 min
Bit rate mode : Constant
Bit rate : 192 kb/s
Channel(s) : 2 channels
Channel layout : L R
Sampling rate : 48.0 kHz
Frame rate : 31.250 FPS (1536 SPF)
Bit depth : 16 bits
Compression mode : Lossy
Stream size : 151 MiB (0%)
Title : Профессиональный (многоголосый, закадровый)
Language : Ukrainian
Service kind : Complete Main
Default : No
Forced : No
Audio #11
ID : 12
Format : MLP FBA 16-ch
Format/Info : Meridian Lossless Packing FBA with 16-channel presentation
Commercial name : Dolby TrueHD with Dolby Atmos
Codec ID : A_TRUEHD
Duration : 1 h 50 min
Bit rate mode : Variable
Bit rate : 3 362 kb/s
Maximum bit rate : 5 004 kb/s
Channel(s) : 8 channels
Channel layout : L R C LFE Ls Rs Lb Rb
Sampling rate : 48.0 kHz
Frame rate : 1 200.000 FPS (40 SPF)
Compression mode : Lossless
Stream size : 2.58 GiB (5%)
Language : English
Default : No
Forced : No
Number of dynamic objects : 11
Bed channel count : 1 channel
Bed channel configuration : LFE
Audio #12
ID : 13
Format : AC-3
Format/Info : Audio Coding 3
Commercial name : Dolby Digital
Codec ID : A_AC3
Duration : 1 h 50 min
Bit rate mode : Constant
Bit rate : 640 kb/s
Channel(s) : 6 channels
Channel layout : L R C LFE Ls Rs
Sampling rate : 48.0 kHz
Frame rate : 31.250 FPS (1536 SPF)
Bit depth : 16 bits
Compression mode : Lossy
Stream size : 504 MiB (1%)
Language : English
Service kind : Complete Main
Default : No
Forced : No
Text #1
ID : 14
Format : UTF-8
Codec ID : S_TEXT/UTF8
Codec ID/Info : UTF-8 Plain Text
Duration : 1 h 42 min
Bit rate : 62 b/s
Count of elements : 840
Stream size : 46.5 KiB (0%)
Title : Full
Language : Russian
Default : Yes
Forced : No
Text #2
ID : 15
Format : UTF-8
Codec ID : S_TEXT/UTF8
Codec ID/Info : UTF-8 Plain Text
Duration : 1 h 41 min
Bit rate : 34 b/s
Count of elements : 993
Stream size : 25.4 KiB (0%)
Title : Full
Language : English
Default : No
Forced : No
Text #3
ID : 16
Format : UTF-8
Codec ID : S_TEXT/UTF8
Codec ID/Info : UTF-8 Plain Text
Duration : 1 h 49 min
Bit rate : 37 b/s
Count of elements : 1167
Stream size : 29.9 KiB (0%)
Title : SDH
Language : English
Default : No
Forced : No
Menu
00:00:00.000 : :Start
00:10:25.750 : :Arnie's Lunch
00:21:55.606 : :Darnell's Garage
00:27:32.401 : :October 9
00:37:40.967 : :The Game
00:49:11.198 : :All Choked Up
00:55:10.390 : :Trashed
01:01:37.652 : :Moochie
01:11:36.959 : :One Hot Car
01:22:29.153 : :Arnie's Alibi
01:32:57.906 : :Bulldozer vs. Plymouth
01:46:23.877 : :End Titles

Скриншоты

Релиз от: | Silverok