Информация о фильме
Название: Мельник
Год выпуска: 2018
Страна: Россия
Жанр: детектив-Перевод: Не требуется [Русский]
Продолжительность: 16 х ~ 00:45:00-Режиссер: Станислав Мареев
В ролях: Сергей Шнырев (Аркадий Мельник), Сергей Паршин, Александр Константинов, Роман Грибков, Игорь Черневич, Наталья Высочанская (Женна), Вячеслав Гасай (Олег Светлов), Юрий Ковалев (Александр Петрович Хмара), Антон Чернов (Алексей Данилов), Сергей Воробьёв (Кузьмин), Даниил Кокин, Татьяна Захарова (Галина Владимировна Кулагина)-Описание:
После тяжелого ранения, бывший майор Роман Мельник дослуживает «выслугу» до пенсии в конвойных войсках ФСИН в должности начальника выездного караула. В одну из смен он сопровождает партию особо опасных преступников в специальном вагоне поезда. Остановившись на одной из станций, Мельник по служебной необходимости отлучается. В это время в вагон проникает неизвестный и, нейтрализовав конвой, освобождает 13 заключенных. Руководство ФСб просит Мельника возглавить группу по поимке сбежавших преступников, мотивируя это тем, что расследование не должно получить огласки в прессе, так как может вызвать панику среди населения.-Качество: HDTV 1080p
Формат: MKV
Видео: AVC, 1920x1080 (16:9), 7050 kbps, 25 fps, 0,136 bpp
Аудио: AC3 / 2.0 / 48 kHz / 192 kbps /-

ОтчетМедиаИнфо

General
Unique ID : 238324318236006069020725801365869168450 (0xB34B9816B7A63445A450551869100742)
Complete name : E:запись с твMelnik 2018.HDTV 1080p.R.G.GeneralfilmMelnik.s01.e01.2018.HDTV 1080p.by.White Smoke.R.G.Generalfilm.mkv
Format : Matroska
Format version : Version 2
File size : 2.33 GiB
Duration : 46 min
Overall bit rate mode : Constant
Overall bit rate : 7 233 kb/s
Movie name : Melnik.s01.e01.2018.HDTV 1080p.by.White Smoke.R.G.Generalfilm.mkv
Encoded date : UTC 2018-05-29 20:21:55
Writing application : mkvmerge v7.6.0 ('Garden of Dreams') 32bit built on Feb 11 2015 00:18:47
Writing library : libebml v1.3.1 + libmatroska v1.4.2
Video
ID : 1
Format : AVC
Format/Info : Advanced Video Codec
Format profile : High@L4.1
Format settings, CABAC : Yes
Format settings, ReFrames : 3 frames
Codec ID : V_MPEG4/ISO/AVC
Duration : 46 min
Bit rate mode : Constant
Bit rate : 7 051 kb/s
Width : 1 920 pixels
Height : 1 080 pixels
Display aspect ratio : 16:9
Frame rate mode : Constant
Frame rate : 25.000 FPS
Standard : PAL
Color space : YUV
Chroma subsampling : 4:2:0
Bit depth : 8 bits
Scan type : Progressive
Bits/(Pixel*Frame) : 0.136
Stream size : 2.22 GiB (95%)
Default : Yes
Forced : No
Color range : Limited
Color primaries : BT.709
Transfer characteristics : BT.709
Matrix coefficients : BT.709
Audio
ID : 2
Format : AC-3
Format/Info : Audio Coding 3
Mode extension : CM (complete main)
Format settings, Endianness : Big
Codec ID : A_AC3
Duration : 46 min
Bit rate mode : Constant
Bit rate : 192 kb/s
Channel(s) : 2 channels
Channel positions : Front: L R
Sampling rate : 48.0 kHz
Frame rate : 31.250 FPS (1536 spf)
Compression mode : Lossy
Stream size : 63.3 MiB (3%)
Default : Yes
Forced : No

Скриншоты