Информация о фильме
Название: Легкое сияние счастья
Оригинальное название: Gleißendes Glück
Год выпуска: 2016
Жанр: Драма
Режиссер: Свен Таддикен
В ролях: Мартина Гедек, Ульрих Тукур, Йоханнес Криш, Ганс-Михаэль Реберг, Дитрих Брюггеманн, Имке Бюхель, Ромина Кюпер, Себастьян Рудольф
О фильме:
Однажды по радио женщина слышит интервью учёного, занимающегося исследованиями мозга. Его зовут Эдуард Е. Глюк, в детстве он тоже страдал бессонницей, но вылечился без помощи врачей. Хелена покупает его книгу о кибернетике, а затем обращается к профессору с просьбой о личной встрече. Учёный посвящает Хелене несколько дней своего драгоценного времени, по истечении которых она осознает, что он сам нуждается в помощи и, возможно, именно в её помощи…

Страна: Германия
Студия: Karlovy Vary International
Продолжительность: 01:42:29
Перевод: Любительский многоголосый [GreenРай Studio]
Файл
Кодек: x264
Качество: HDRip 720p
Видео: 4000 Кбит/с, 1280x536, 24.000 fps
Звук: Русский (AC3, 2 ch, 640 Кбит/с)

Скриншоты

MediaInfo

General
Unique ID : 236672585474208123939937534797913452321 (0xB20D7B604A78469C92B4A91C04DEEF21)
Complete name : E:workGleissendes.Glueck.2016.P.BDRip.720p.mkv
Format : Matroska
Format version : Version 4 / Version 2
File size : 3.22 GiB
Duration : 1 h 42 min
Overall bit rate mode : Constant
Overall bit rate : 4 496 kb/s
Encoded date : UTC 2018-02-12 17:09:23
Writing application : mkvmerge v8.3.0 ('Over the Horizon') 64bit
Writing library : libebml v1.3.1 + libmatroska v1.4.2
Video
ID : 1
Format : AVC
Format/Info : Advanced Video Codec
Format profile : [email protected]
Format settings : CABAC / 3 Ref Frames
Format settings, CABAC : Yes
Format settings, ReFrames : 3 frames
Format settings, GOP : M=4, N=15
Codec ID : V_MPEG4/ISO/AVC
Duration : 1 h 42 min
Bit rate mode : Constant
Bit rate : 4 000 kb/s
Width : 1 280 pixels
Height : 536 pixels
Display aspect ratio : 2.40:1
Frame rate mode : Constant
Frame rate : 24.000 FPS
Standard : NTSC
Color space : YUV
Chroma subsampling : 4:2:0
Bit depth : 8 bits
Scan type : Progressive
Bits/(Pixel*Frame) : 0.243
Stream size : 2.76 GiB (86%)
Language : English
Default : Yes
Forced : No
Color range : Limited
Audio
ID : 2
Format : AC-3
Format/Info : Audio Coding 3
Codec ID : A_AC3
Duration : 1 h 42 min
Bit rate mode : Constant
Bit rate : 640 kb/s
Channel(s) : 2 channels
Channel positions : Front: L R
Sampling rate : 48.0 kHz
Frame rate : 31.250 FPS (1536 SPF)
Bit depth : 16 bits
Compression mode : Lossy
Stream size : 469 MiB (14%)
Service kind : Complete Main
Default : Yes
Forced : No
Внимание,имеется видео и аудио реклама от спонсора показа
Над релизом работали:
Состав дикторов Дмитрий Кравченко, Нана Саркисян, Олег Винник
Руководитель проекта и координатор: Евгений Овчаренко
Организатор и координатор: Никита Марков
Пиар менеджер студии: Гриша Чернозатонский
Техническая поддержка: Александр Методий
Релиз от: