Информация о фильме
Название: Проект «Флорида»
Оригинальное название: The Florida Project
Год выпуска: 2017
Жанр: Драма
Режиссер: Шон Бэйкер
В ролях: Уиллем Дефо, Бруклин Принс, Калеб Лэндри Джонс, Мэйкон Блэр, Карен Карагулян, Сэнди Кэйн
О фильме:
Это лето Муни и ее друзья не забудут. Каждый день они, переполненные энергией и пренебрежением к взрослым, носятся по волшебному миру одноэтажной Америки на подступах к Диснейленду. Помешать им могут только родители или строгий надзиратель.

Страна: США
Студия: Cre Film, Freestyle Picture Company, June Pictures
Продолжительность: 01:52:08
Перевод: Любительский многоголосый [GreenРай Studio]
Файл
Кодек: x264
Качество: HDRip 720p
Видео: 4000 Кбит/с, 1280x536, 23.976 fps
Звук: Русский (AC3, 2 ch, 640 Кбит/с)

Скриншоты

MediaInfo

General
Unique ID : 249458354415794371220873519474295863455 (0xBBABEE74785F106D9B16459CDF9A789F)
Complete name : E:workThe.Florida.Project.2017.P.BDRip.720p.mkv
Format : Matroska
Format version : Version 4 / Version 2
File size : 3.59 GiB
Duration : 1 h 52 min
Overall bit rate mode : Constant
Overall bit rate : 4 586 kb/s
Encoded date : UTC 2018-02-08 14:15:05
Writing application : mkvmerge v8.3.0 ('Over the Horizon') 64bit
Writing library : libebml v1.3.1 + libmatroska v1.4.2
Video
ID : 1
Format : AVC
Format/Info : Advanced Video Codec
Format profile : Main@L3.1
Format settings : CABAC / 3 Ref Frames
Format settings, CABAC : Yes
Format settings, ReFrames : 3 frames
Format settings, GOP : M=4, N=15
Codec ID : V_MPEG4/ISO/AVC
Duration : 1 h 52 min
Bit rate mode : Constant
Bit rate : 4 000 kb/s
Width : 1 280 pixels
Height : 536 pixels
Display aspect ratio : 2.40:1
Frame rate mode : Constant
Frame rate : 23.976 (24000/1001) FPS
Standard : NTSC
Color space : YUV
Chroma subsampling : 4:2:0
Bit depth : 8 bits
Scan type : Progressive
Bits/(Pixel*Frame) : 0.243
Stream size : 3.09 GiB (86%)
Language : English
Default : Yes
Forced : No
Color range : Limited
Audio
ID : 2
Format : AC-3
Format/Info : Audio Coding 3
Codec ID : A_AC3
Duration : 1 h 52 min
Bit rate mode : Constant
Bit rate : 640 kb/s
Channel(s) : 2 channels
Channel positions : Front: L R
Sampling rate : 48.0 kHz
Frame rate : 31.250 FPS (1536 SPF)
Bit depth : 16 bits
Compression mode : Lossy
Stream size : 513 MiB (14%)
Service kind : Complete Main
Default : Yes
Forced : No
Внимание,имеется видео и аудио реклама от спонсора показа
Над релизом работали:
Состав дикторов Анастасия Гайдаржи, Илья Кочетков, Андрей Данилко
Руководитель проекта и координатор: Евгений Овчаренко
Организатор и координатор: Никита Марков
Пиар менеджер студии: Гриша Чернозатонский
Техническая поддержка: Александр Методий
Релиз от: